#TITLE:Yellow Black & Blues;
#SUBTITLE:;
#ARTIST:DJ;
#TITLETRANSLIT:;
#SUBTITLETRANSLIT:;
#ARTISTTRANSLIT:;
#CREDIT:;
#BANNER:Yellow Black And Blues-banner.png;
#BACKGROUND:Yellow Black And Blues-bg.png;
#LYRICSPATH:;
#CDTITLE:;
#MUSIC:yellow black blues.mp3;
#MUSICLENGTH:86.177;
#OFFSET:-1.320;
#SAMPLESTART:61.245;
#SAMPLELENGTH:12.000;
#SELECTABLE:YES;
#BPMS:0.000=96.000;
#STOPS:;
#BGCHANGES:;
#FIRSTBEAT:6.000;

#LASTBEAT:134.000;

#SONGFILENAME:Songs/ERICth MIX 2nd Style/yellow black blues/yellow.sm;

#HASMUSIC:1;

#HASBANNER:1;


//---------------dance-single - MANIAC----------------
#NOTES:
     dance-single:
     MANIAC:
     hard:
     8:
     0.363,0.369,0.186,0.070,0.197,197.000,16.000,6.000,0.000,0.000:

0000
0000
0000
0000
,
0000
0000
1001
1001
,
0100
0000
0100
0000
0010
1000
0000
0000
0100
0000
0100
0000
0010
0000
0000
0000
,
1000
0000
1000
0000
0010
0100
0000
0000
0001
0000
0001
0000
0010
0000
0000
0000
,
1000
0000
0000
0000
0010
0000
0100
0000
0001
0000
0000
0001
0000
0000
0001
0000
,
0100
0010
1000
0100
1000
0100
0010
0001
,
0010
0000
0000
0000
0010
0000
0100
0000
1000
0000
0000
0100
0000
0010
0100
0000
,
0000
0100
1000
0000
0001
0000
1000
0000
0001
0000
1000
0000
0001
1000
0000
0000
,
1100
0000
1100
0000
0001
0000
0000
1000
0000
0000
1000
0000
0000
0000
0000
0000
,
0010
0000
0100
0010
0000
0100
0000
0000
0010
0000
0100
0010
0000
0100
0000
0000
,
0011
0000
0011
0000
1000
0000
0000
0001
0000
0000
1000
0000
0000
0000
0000
0000
,
1000
0100
1000
0100
0000
0100
0000
0100
0010
0001
0010
0001
0000
0000
1000
0000
,
0010
0100
0010
0001
0010
1000
0100
1000
,
0001
1000
0100
0001
0100
1000
0010
1000
,
0200
0000
0000
0320
0000
0000
0031
0000
,
1000
0100
1000
0100
1000
0100
1000
0100
,
1000
0100
1000
0100
1000
0100
1000
0100
1000
0000
0000
0000
0000
0000
0000
0000
,
1000
0000
0000
0000
0011
0000
0000
0000
0100
0000
0100
0000
1000
0001
0000
0000
,
0001
0000
0000
0000
1010
0000
0000
0000
0100
0000
0100
0000
0001
1000
0000
0000
,
1000
0000
0000
0000
0011
0000
0000
0000
0100
0000
0100
0000
1000
0001
0000
0000
,
0001
0000
0000
0000
1010
0000
0000
0000
0100
0000
0100
0000
0001
1000
0000
0000
,
1000
0000
0000
0000
0011
0000
0000
0000
0100
0000
0100
0000
1000
0001
0000
0000
,
0001
0000
0000
0000
1010
0000
0000
0000
0100
0000
0100
0000
0001
1000
0000
0000
,
1000
0000
0000
0000
0011
0000
0000
0000
0100
0000
0100
0000
1000
0001
0000
0000
,
0001
0001
0001
0001
,
1000
0000
0000
0000
0100
0000
0000
0000
0010
0001
0010
0001
0000
0000
0001
0000
,
1000
0000
0000
0002
0000
0000
0010
0003
,
1000
0000
0000
0020
0000
0000
0100
0030
,
0001
1001
1000
1001
,
1000
0000
0000
0000
0100
0000
0000
0000
0010
0001
0010
0001
0000
0000
0001
0000
,
1000
0000
0000
0000
,
1000
0100
0010
0100
1000
0010
1000
0000
,
1000
0100
0001
0010
1000
0100
0001
0010
,
0202
0000
0303
0000;

//---------------dance-single - ANOTHER----------------
#NOTES:
     dance-single:
     ANOTHER:
     medium:
     6:
     0.249,0.325,0.093,0.035,0.000,139.000,8.000,3.000,0.000,0.000:

0000
0000
0000
0000
,
0000
0000
0000
0001
,
0010
0010
0010
0010
0010
0010
0010
0010
,
0010
0010
0010
0010
0010
0010
0010
0010
,
0001
1000
0001
1000
,
0100
0010
0100
0001
,
1000
0010
0100
0010
,
0100
0000
0010
0100
0000
0000
0000
0000
,
1001
0000
0001
1000
0000
1000
0000
0000
,
0001
0100
0010
0100
,
0011
0000
1000
0000
0100
0100
0000
0000
,
0000
0100
0000
0100
,
1000
0000
0100
0000
0010
0100
0010
0001
,
0100
1000
0100
0010
,
0100
0000
0001
0000
1000
0010
1000
0100
,
1000
0000
0000
0000
,
0001
0001
0001
0001
1001
0000
0000
0000
,
0010
0000
0100
0000
0001
0001
1000
0000
,
0010
0000
0100
0000
1000
1000
0001
0000
,
0010
0000
0100
0000
0001
0001
1000
0000
,
0010
0000
0100
0000
1000
1000
0001
0000
,
0010
0000
0100
0000
0001
0001
1000
0000
,
0010
0000
0100
0000
1000
1000
0001
0000
,
0010
0000
0100
0000
0001
0001
1000
0000
,
1000
0001
1000
1001
,
1001
0000
0010
0000
0001
0011
0001
0000
,
0000
1000
0000
0001
,
1000
1010
0100
0000
0000
0000
0010
0000
,
0001
0000
0000
0000
,
0200
0320
0032
0103
,
0010
0000
0001
0100
,
1010
0000
0100
0000
0001
0000
0100
0010
,
0100
0000
0001
0100
0001
1000
0100
0001
,
0001
0000
0000
0000;

//---------------dance-single - BASIC----------------
#NOTES:
     dance-single:
     BASIC:
     easy:
     2:
     0.108,0.172,0.116,0.012,0.000,54.000,10.000,1.000,0.000,0.000:

0000
0000
0000
0000
,
0000
0000
0000
0000
,
0200
0000
0000
0000
,
0000
0000
0000
0000
,
0301
0000
1000
0000
,
0100
0000
0010
0000
,
0100
0000
0001
0000
,
1000
0000
0000
0000
,
0110
0000
0001
0001
,
0000
0000
0000
1000
,
1000
0000
0000
0000
,
0010
0010
0000
0000
,
0100
0000
0000
0000
,
0001
0000
0000
0000
,
1000
0000
0000
0000
,
0100
0000
0000
0000
,
0011
1010
1010
0000
,
0001
0000
0100
0000
,
0001
0000
1000
0000
,
0001
0000
0100
0000
,
0010
0000
0100
0000
,
1000
0000
0100
0000
,
0001
0000
0100
0000
,
0010
0000
0010
0000
,
0110
0000
0000
0000
,
1001
0100
0010
0000
,
0000
0000
0000
0000
,
1001
0010
0100
0000
,
0000
0000
0000
0000
,
0110
1000
0001
0000
,
0000
0000
0000
0000
,
0110
0001
1000
0000
,
0100
0100
0010
0010
,
0110
0000
0000
0000;
